<?xml version="1.0" standalone="no"?>
<!DOCTYPE svg PUBLIC "-//W3C//DTD SVG 1.1//EN" "http://www.w3.org/Graphics/SVG/1.1/DTD/svg11.dtd" >
<svg xmlns="http://www.w3.org/2000/svg">
<metadata>Generated by IcoMoon</metadata>
<defs>
<font id="icomoon" horiz-adv-x="1024">
<font-face units-per-em="1024" ascent="960" descent="-64" />
<missing-glyph horiz-adv-x="1024" />
<glyph unicode="&#x20;" horiz-adv-x="512" d="" />
<glyph unicode="&#xe600;" glyph-name="arrowup" d="M1027.303 233.29l-82.581-82.581-432.723 432.723-429.419-432.723-82.581 82.581 512 512z" />
<glyph unicode="&#xe601;" glyph-name="arrow-left" d="M730.013 960l79.277-82.581-432.723-429.419 432.723-432.723-82.581-82.581-512 515.303z" />
<glyph unicode="&#xe602;" glyph-name="doublearrowright" horiz-adv-x="1448" d="M323.080-64.001l-81.34 81.34 428.274 430.667-428.274 428.274 81.34 81.34 509.615-512.007zM684.355-61.608l-81.34 83.733 435.451 423.476-423.476 435.451 81.34 78.948 504.83-516.792z" />
<glyph unicode="&#xe603;" glyph-name="call" d="M751.276 342.513c-66.894-66.894-66.894-138.935-138.935-138.935s-138.935 66.894-205.829 138.935c-66.894 66.894-138.935 138.935-138.935 205.829s66.894 66.894 138.935 138.935c66.894 66.894-138.935 272.724-205.829 272.724s-205.829-205.829-205.829-205.829c0-138.935 138.935-411.658 272.724-545.447s411.658-272.724 545.447-272.724c0 0 205.829 138.935 205.829 205.829s-200.683 272.724-267.578 200.683z" />
<glyph unicode="&#xe604;" glyph-name="close" d="M1024 868.103l-91.897 91.897-420.103-420.103-413.538 420.103-98.462-91.897 420.103-420.103-420.103-420.103 98.462-91.897 413.538 420.103 420.103-420.103 91.897 91.897-420.103 420.103z" />
<glyph unicode="&#xe605;" glyph-name="contact" d="M57.878 799.722c4.452 4.452 13.357 4.452 22.261 4.452h859.27c8.904 0 17.809 0 26.713-4.452l-387.339-365.078c-40.070-35.617-102.4-35.617-138.017 0l-382.887 365.078zM1015.096 145.252c4.452 8.904 8.904 22.261 8.904 35.617v543.165c0 8.904 0 17.809-4.452 26.713l-360.626-338.365 356.174-267.13zM614.4 372.313c-31.165-26.713-66.783-40.070-102.4-40.070s-75.687 13.357-102.4 40.070l-356.174-262.678c8.904-4.452 17.809-4.452 26.713-4.452h859.27c8.904 0 17.809 0 26.713 4.452l-351.722 262.678zM4.452 750.748c-4.452-8.904-4.452-17.809-4.452-26.713v-543.165c0-13.357 4.452-26.713 8.904-35.617l356.174 267.13-360.626 338.365z" />
<glyph unicode="&#xe606;" glyph-name="home" d="M501.76 693.76l-358.4-296.96c0 0 0 0 0 0s0 0 0 0v-296.96c0-10.24 5.12-20.48 10.24-30.72 5.12-5.12 15.36-10.24 30.72-10.24h240.64v240.64h158.72v-240.64h240.64c10.24 0 20.48 5.12 30.72 10.24 5.12 5.12 10.24 15.36 10.24 30.72v296.96c0 0 0 5.12 0 5.12l-363.52 291.84zM998.4 468.48l-138.24 112.64v256c0 5.12 0 10.24-5.12 15.36s-10.24 5.12-15.36 5.12h-117.76c-5.12 0-10.24 0-15.36-5.12 0-5.12-5.12-10.24-5.12-15.36v-122.88l-153.6 128c-10.24 10.24-25.6 15.36-46.080 15.36s-30.72-5.12-46.080-15.36l-445.44-373.76c-5.12-5.12-5.12-5.12-5.12-15.36 0-5.12 0-10.24 5.12-15.36l40.96-46.080c5.12-5.12 5.12-5.12 15.36-5.12 5.12 0 10.24 0 15.36 5.12l430.080 358.4 430.080-358.4c5.12-5.12 5.12-5.12 15.36-5.12v0c5.12 0 10.24 5.12 15.36 5.12l40.96 46.080c5.12 5.12 5.12 10.24 5.12 15.36-15.36 5.12-15.36 10.24-20.48 15.36z" />
<glyph unicode="&#xe607;" glyph-name="instagram" d="M129.567 960h760.686c71.053 0 129.567-54.335 129.567-129.567v-760.686c0-79.412-58.514-129.567-129.567-129.567h-760.686c-71.053 0-129.567 54.335-129.567 129.567v760.686c0 75.233 58.514 129.567 129.567 129.567v0zM743.967 847.151c-25.078 0-45.976-20.898-45.976-45.976v-108.669c0-25.078 20.898-45.976 45.976-45.976h117.029c25.078 0 45.976 20.898 45.976 45.976v108.669c0 25.078-20.898 45.976-45.976 45.976h-117.029zM906.971 525.322h-91.951c8.359-29.257 12.539-58.514 12.539-87.771 0-171.363-142.106-309.29-317.649-309.29s-317.649 137.927-317.649 309.29c0 29.257 4.18 58.514 12.539 87.771h-91.951v-430.498c0-20.898 16.718-41.796 41.796-41.796h714.71c20.898 0 41.796 16.718 41.796 41.796l-4.18 430.498zM514.090 650.71c-112.849 0-204.8-87.771-204.8-200.62s91.951-200.62 204.8-200.62 204.8 87.771 204.8 200.62-91.951 200.62-204.8 200.62z" />
<glyph unicode="&#xe608;" glyph-name="link" d="M512 960c-285.257 0-512-226.743-512-512s226.743-512 512-512c285.257 0 512 226.743 512 512s-226.743 512-512 512zM431.543 184.686l-80.457 73.143 190.171 190.171-190.171 190.171 80.457 80.457 263.314-270.629-263.314-263.314z" />
<glyph unicode="&#xe609;" glyph-name="linkedIn" d="M15.36 611.84h220.16v-665.6h-220.16v665.6zM128 934.4c-76.8 0-128-51.2-128-112.64s51.2-112.64 122.88-112.64c76.8 0 128 51.2 128 112.64-5.12 61.44-46.080 112.64-122.88 112.64zM778.24 627.2c-117.76 0-168.96-66.56-199.68-107.52v92.16h-220.16c0-61.44 0-665.6 0-665.6h220.16v373.76c0 20.48 0 40.96 10.24 51.2 15.36 40.96 51.2 81.92 112.64 81.92 81.92 0 112.64-61.44 112.64-148.48v-358.4h220.16v378.88c-5.12 209.92-112.64 302.080-256 302.080z" />
<glyph unicode="&#xe60a;" glyph-name="location" d="M496.64 960v0c-204.8 0-368.64-163.84-368.64-368.64 0-71.68 20.48-143.36 56.32-194.56l240.64-419.84c15.36-25.6 46.080-40.96 71.68-40.96 30.72 0 56.32 15.36 76.8 40.96l240.64 414.72c30.72 56.32 56.32 122.88 56.32 194.56 0 209.92-168.96 373.76-373.76 373.76zM496.64 478.72c-76.8 0-133.12 61.44-133.12 133.12s61.44 133.12 133.12 133.12 133.12-61.44 133.12-133.12c5.12-71.68-56.32-133.12-133.12-133.12z" />
<glyph unicode="&#xe60b;" glyph-name="menu" d="M0 499.2h1024v-102.4h-1024v102.4zM0 140.8h1024v-102.4h-1024v102.4zM0 857.6h1024v-102.4h-1024v102.4z" />
<glyph unicode="&#xe60c;" glyph-name="pinterest" d="M530.071 960c-283.106 0-433.694-192.753-433.694-397.553 0-96.376 54.212-216.847 132.518-252.988 12.047-6.024 18.071-6.024 24.094 6.024 0 12.047 12.047 54.212 18.071 72.282 0 6.024 0 12.047-6.024 18.071-30.118 30.118-48.188 96.376-48.188 150.588 0 144.565 108.424 289.129 295.153 289.129 162.635 0 277.082-108.424 277.082-271.059 0-180.706-90.353-301.176-204.8-301.176-66.259 0-114.447 54.212-96.376 120.471 18.071 78.306 54.212 162.635 54.212 216.847 0 48.188-30.118 90.353-84.329 90.353-66.259 0-120.471-66.259-120.471-162.635 0-60.235 18.071-96.376 18.071-96.376s-66.259-277.082-78.306-325.271c-12.047-54.212-6.024-138.541 0-186.729l42.165-18.071c24.094 42.165 66.259 114.447 84.329 174.682 6.024 30.118 42.165 156.612 42.165 156.612 24.094-42.165 84.329-78.306 150.588-78.306 198.776 0 343.341 180.706 343.341 409.6-6.024 222.871-180.706 385.506-409.6 385.506z" />
<glyph unicode="&#xe60d;" glyph-name="play" d="M512 960c-277.943 0-512-234.057-512-512s234.057-512 512-512 512 226.743 512 512-226.743 512-512 512zM409.6 213.943v460.8l307.2-226.743-307.2-234.057z" />
<glyph unicode="&#xe60e;" glyph-name="print" d="M321.164 192h321.164v-65.164h-321.164v65.164zM256 894.836h512v-130.327h65.164v130.327c0 37.236-27.927 65.164-65.164 65.164h-512c-37.236 0-65.164-27.927-65.164-65.164v-130.327h65.164v130.327zM321.164 322.327h381.673v-65.164h-381.673v65.164zM958.836 704h-893.673c-37.236 0-65.164-27.927-65.164-65.164v-386.327c0-37.236 27.927-65.164 65.164-65.164h130.327v-190.836c0-37.236 27.927-65.164 65.164-65.164h512c37.236 0 65.164 27.927 65.164 65.164v190.836h130.327c37.236 0 65.164 27.927 65.164 65.164v386.327c-9.309 37.236-37.236 65.164-74.473 65.164zM768 1.164h-512v386.327h512v-386.327zM893.673 513.164c-37.236 0-65.164 27.927-65.164 65.164s27.927 65.164 65.164 65.164c37.236 0 65.164-27.927 65.164-65.164s-27.927-65.164-65.164-65.164z" />
<glyph unicode="&#xe60f;" glyph-name="search" horiz-adv-x="1030" d="M1011.119 45.484l-270.491 270.491c45.082 64.403 77.283 148.126 77.283 238.289 0 225.409-180.327 405.736-405.736 405.736s-405.736-180.327-405.736-405.736c0-225.409 180.327-405.736 405.736-405.736 83.723 0 167.447 25.761 238.289 77.283l270.491-270.491c25.761-25.761 64.403-25.761 96.604 0v0c19.321 25.761 19.321 64.403-6.44 90.164zM405.736 238.692c-173.887 0-309.132 141.686-309.132 309.132 0 173.887 141.686 309.132 309.132 309.132 173.887 0 309.132-141.686 309.132-309.132 6.44-167.447-135.245-309.132-309.132-309.132z" />
<glyph unicode="&#xe610;" glyph-name="tick" d="M419.84 207.36l-204.8 204.8 92.16 92.16 117.76-117.76 296.96 296.96 92.16-92.16-394.24-384z" />
<glyph unicode="&#xe612;" glyph-name="twitter" d="M1046.756 772.267c-39.822-17.067-79.644-28.444-125.156-34.133 45.511 28.444 79.644 68.267 96.711 119.467-39.822-22.756-85.333-39.822-136.533-51.2-39.822 39.822-96.711 68.267-159.289 68.267-119.467 0-216.178-96.711-216.178-216.178 0-17.067 0-34.133 5.689-45.511-176.356 5.689-335.644 96.711-438.044 227.556-17.067-28.444-28.444-68.267-28.444-108.089 0-73.956 39.822-142.222 96.711-182.044-34.133 0-68.267 11.378-96.711 28.444v-5.689c0-102.4 73.956-187.733 170.667-210.489-17.067-5.689-39.822-5.689-56.889-5.689-11.378 0-28.444 0-39.822 5.689 28.444-85.333 108.089-147.911 199.111-147.911-73.956-56.889-164.978-91.022-267.378-91.022-17.067 0-34.133 0-51.2 5.689 96.711-62.578 210.489-96.711 329.956-96.711 398.222 0 608.711 329.956 608.711 608.711v28.444c39.822 22.756 79.644 62.578 108.089 102.4z" />
<glyph unicode="&#xe613;" glyph-name="youtube" d="M293.547 731.307v-153.6h58.027v153.6l68.267 228.693h-58.027l-37.547-150.187-40.96 150.187h-61.44c13.653-34.133 23.893-71.68 37.547-105.813 17.067-54.613 30.72-95.573 34.133-122.88zM651.947 574.293c20.48 0 37.547 10.24 58.027 34.133v-30.72h51.2v283.307h-51.2v-218.453c-10.24-17.067-23.893-23.893-34.133-23.893-6.827 0-10.24 3.413-13.653 13.653 0 0 0 6.827 0 20.48v208.213h-51.2v-225.28c0-20.48 3.413-34.133 3.413-40.96 10.24-13.653 23.893-20.48 37.547-20.48zM498.347 574.293c27.307 0 44.373 10.24 61.44 30.72 10.24 13.653 17.067 37.547 17.067 68.267v95.573c0 30.72-6.827 51.2-17.067 68.267-13.653 20.48-34.133 30.72-61.44 30.72s-44.373-10.24-61.44-30.72c-10.24-13.653-17.067-37.547-17.067-68.267v-98.987c0-30.72 6.827-51.2 17.067-68.267 13.653-17.067 34.133-27.307 61.44-27.307zM471.040 779.093c0 27.307 6.827 40.96 23.893 40.96s23.893-13.653 23.893-40.96v-119.467c0-27.307-6.827-40.96-23.893-40.96s-23.893 13.653-23.893 40.96v119.467zM600.747 287.573c-6.827 0-17.067-3.413-23.893-13.653v-170.667c10.24-10.24 17.067-13.653 23.893-13.653 13.653 0 23.893 13.653 23.893 37.547v119.467c0 27.307-6.827 40.96-23.893 40.96zM791.893 287.573c-17.067 0-27.307-13.653-27.307-37.547v-27.307h51.2v27.307c3.413 23.893-6.827 37.547-23.893 37.547zM918.187 430.933c-10.24 44.373-47.787 78.507-92.16 81.92-105.813 10.24-211.627 10.24-317.44 10.24s-211.627 0-317.44-10.24c-44.373-3.413-81.92-37.547-92.16-81.92-13.653-64.853-13.653-133.12-13.653-201.387 0-64.853 0-136.533 13.653-201.387 10.24-44.373 47.787-78.507 92.16-81.92 105.813-10.24 211.627-10.24 317.44-10.24s211.627 0 317.44 10.24c44.373 3.413 81.92 37.547 92.16 81.92 13.653 64.853 13.653 133.12 13.653 201.387s0 136.533-13.653 201.387zM327.68 372.907h-61.44v-324.267h-58.027v324.267h-61.44v54.613h177.493v-54.613zM481.28 48.64h-51.2v30.72c-20.48-23.893-40.96-34.133-58.027-34.133s-27.307 6.827-34.133 20.48c-3.413 6.827-3.413 20.48-3.413 40.96v221.867h51.2v-208.213c0-13.653 0-17.067 0-20.48 0-6.827 6.827-13.653 13.653-13.653 10.24 0 20.48 6.827 30.72 23.893v215.040h51.2v-276.48zM675.84 133.973c0-27.307-3.413-44.373-6.827-58.027-6.827-20.48-20.48-30.72-40.96-30.72-17.067 0-34.133 10.24-51.2 30.72v-27.307h-51.2v378.88h51.2v-122.88c17.067 20.48 34.133 30.72 51.2 30.72 20.48 0 34.133-10.24 40.96-30.72 3.413-10.24 6.827-30.72 6.827-58.027v-112.64zM866.987 178.347h-102.4v-51.2c0-27.307 10.24-37.547 27.307-37.547 13.653 0 20.48 6.827 23.893 20.48 0 3.413 0 13.653 0 34.133h51.2v-6.827c0-17.067 0-27.307 0-34.133-3.413-10.24-6.827-20.48-13.653-30.72-13.653-20.48-34.133-30.72-61.44-30.72s-47.787 10.24-61.44 27.307c-10.24 13.653-17.067 37.547-17.067 64.853v98.987c0 30.72 3.413 51.2 17.067 64.853 13.653 20.48 34.133 27.307 61.44 27.307s44.373-10.24 61.44-27.307c10.24-13.653 17.067-37.547 17.067-64.853v-54.613z" />
<glyph unicode="&#xe614;" glyph-name="zoom" d="M512 704h-128v-128h-128v-128h128v-128h128v128h128v128h-128v128zM1000.96 71.68l-184.32 184.32c51.2 71.68 81.92 161.28 81.92 256-2.56 248.32-202.24 448-450.56 448s-448-199.68-448-448 199.68-448 448-448c94.72 0 184.32 30.72 256 81.92l184.32-184.32c30.72-30.72 81.92-30.72 112.64 0 30.72 28.16 30.72 79.36 0 110.080zM448 192c-176.64 0-320 143.36-320 320s143.36 320 320 320c176.64 0 320-143.36 320-320s-143.36-320-320-320z" />
<glyph unicode="&#xe615;" glyph-name="auto" horiz-adv-x="1451" d="M1439.536 640.928c-7.42 7.42-18.551 14.841-29.681 14.841h-140.986c-33.391 92.754-81.623 181.797-129.855 215.188-178.087 118.725-649.275 118.725-831.072 0-51.942-33.391-96.464-122.435-133.565-215.188h-140.986c-11.13 0-22.261-3.71-29.681-14.841-7.42-7.42-11.13-18.551-7.42-29.681l22.261-100.174c3.71-18.551 18.551-29.681 37.101-29.681h40.812c-40.812-48.232-59.362-103.884-59.362-163.246 0-74.203 25.971-137.275 77.913-185.507 0 0 0 0 0 0v-140.986c0-29.681 25.971-55.652 55.652-55.652h129.855c29.681 0 55.652 25.971 55.652 55.652v55.652h727.188v-55.652c0-29.681 25.971-55.652 55.652-55.652h129.855c29.681 0 55.652 25.971 55.652 55.652v137.275c51.942 48.232 77.913 115.014 77.913 181.797 0 59.362-18.551 122.435-63.072 170.667h44.522c18.551 0 33.391 11.13 37.101 29.681l22.261 100.174c7.42 11.13 3.71 22.261-3.71 29.681zM371.014 778.203c140.986 92.754 563.942 92.754 708.638 0 25.971-18.551 63.072-92.754 96.464-181.797h-897.855c29.681 89.043 66.783 163.246 92.754 181.797zM204.058 303.304c0 59.362 48.232 107.594 111.304 107.594 59.362 0 111.304-48.232 111.304-107.594s-48.232-111.304-111.304-111.304c-63.072 0-111.304 48.232-111.304 111.304zM1135.304 192c-59.362 0-111.304 48.232-111.304 111.304s48.232 107.594 111.304 107.594c59.362 0 111.304-48.232 111.304-107.594s-48.232-111.304-111.304-111.304z" />
<glyph unicode="&#xe616;" glyph-name="battery" horiz-adv-x="2020" d="M38.28-24.73c25.41-26.070 56.761-39.27 94.051-39.27h1590.616c35.97 0 66.661 13.2 93.061 39.27s39.27 56.761 39.27 93.061v179.522h102.961c33.99 0 61.381 26.4 61.381 60.061v284.463c0 33.99-27.39 60.061-61.381 60.061h-102.961v174.902c0 35.97-13.2 66.661-39.27 93.061-26.4 26.4-56.761 39.27-93.061 39.27h-1590.616c-37.29 0-69.301-12.87-94.051-38.28-25.41-26.070-38.28-58.081-38.28-94.051v-759.337c0-35.97 13.53-67.321 38.28-92.731zM121.441 827.669c0 7.59 3.3 10.89 10.89 10.89h1590.616c4.29 0 11.88-6.6 11.88-10.89v-759.337c0-4.29-7.59-10.89-11.88-10.89h-1590.616c-7.59 0-10.89 3.3-10.89 10.89v759.337zM224.402 746.488h408.214v-597.306h-408.214v597.306zM720.067 746.488h412.504v-597.306h-412.504v597.306zM1226.292 746.488h406.894v-597.306h-406.894v597.306z" />
<glyph unicode="&#xe617;" glyph-name="camera" horiz-adv-x="1280" d="M640 576c-106.24 0-192-85.76-192-192s85.76-192 192-192c106.24 0 192 85.76 192 192s-85.76 192-192 192zM1152 768h-153.6c-20.48 0-43.52 16.64-49.92 35.84l-39.68 119.040c-6.4 20.48-29.44 35.84-49.92 35.84h-435.2c-20.48 0-43.52-16.64-49.92-35.84l-39.68-119.040c-6.4-20.48-29.44-35.84-49.92-35.84h-153.6c-70.4 0-128-57.6-128-128v-576c0-70.4 57.6-128 128-128h1024c70.4 0 128 57.6 128 128v576c-2.56 70.4-60.16 128-130.56 128zM640 64c-176.64 0-320 143.36-320 320s143.36 320 320 320c176.64 0 320-143.36 320-320s-143.36-320-320-320zM1107.2 550.4c-24.32 0-44.8 20.48-44.8 44.8s20.48 44.8 44.8 44.8c24.32 0 44.8-20.48 44.8-44.8s-20.48-44.8-44.8-44.8z" />
<glyph unicode="&#xe618;" glyph-name="cargo" horiz-adv-x="1457" d="M51.188 277.651v619.971c0 34.522 27.856 62.378 62.378 62.378h619.733c34.522 0 62.378-27.856 62.378-62.378v-619.971c0-11.428-9.285-20.713-20.713-20.713h-703.063c-11.428 0-20.713 9.285-20.713 20.713zM551.403 65.28c0-71.425-57.854-129.28-129.28-129.28s-129.28 57.854-129.28 129.28c0 71.425 57.854 129.28 129.28 129.28s129.28-57.854 129.28-129.28zM486.882 65.28c0 35.713-29.046 64.759-64.759 64.759s-64.759-29.046-64.759-64.759 29.046-64.759 64.759-64.759 64.759 29.046 64.759 64.759zM310.7 194.559h-289.987c-11.428 0-20.713-9.285-20.713-20.713v-63.092c0-11.428 9.285-20.713 20.713-20.713h232.37c6.19 41.665 27.142 78.33 57.616 104.519zM1228.276 65.28c0-71.425-57.854-129.28-129.28-129.28s-129.28 57.854-129.28 129.28c0 71.425 57.854 129.28 129.28 129.28s129.28-57.854 129.28-129.28zM1163.755 65.28c0 35.713-29.046 64.759-64.759 64.759s-64.759-29.046-64.759-64.759 29.046-64.759 64.759-64.759 64.759 29.046 64.759 64.759zM1457.075 173.846v-63.092c0-11.428-9.285-20.713-20.713-20.713h-168.326c-12.142 82.615-83.091 146.184-169.040 146.184s-156.897-63.568-169.040-146.184h-338.794c-5.952 41.665-27.142 78.33-57.616 104.757h321.414v594.496c0 22.856 18.571 41.665 41.665 41.665h196.181c55.236 0 106.9-27.38 137.851-73.33l126.661-187.372c18.571-27.38 28.57-59.997 28.57-93.091v-282.606h50.712c11.19 0 20.475-9.285 20.475-20.713zM1246.133 565.495l-101.186 143.803c-3.809 5.476-10.238 8.809-16.904 8.809h-157.85c-11.428 0-20.713-9.285-20.713-20.713v-143.803c0-11.428 9.285-20.713 20.713-20.713h259.036c16.666-0.238 26.665 18.809 16.904 32.618z" />
<glyph unicode="&#xe619;" glyph-name="doctor" horiz-adv-x="875" d="M133.397 423.953c1.755-20.712 13.34-40.019 32.998-50.902 16.148-9.127 32.647-15.797 49.848-20.361-9.478-32.296-27.031-79.336-58.625-129.185-29.839-47.742-30.19-105.314-1.053-157.971 43.179-77.581 137.961-129.887 236.254-129.887 67.401 0 127.781 31.243 169.204 87.761 59.327 80.74 72.315 200.096 35.105 318.749-34.754 110.228 11.585 168.853 42.125 194.128 24.924-24.222 58.976-38.966 96.186-38.966 76.528 0 139.014 62.135 139.014 139.014s-62.135 139.014-139.014 139.014c-76.528 0-139.014-62.135-139.014-139.014 0-10.882 1.404-21.414 3.51-31.243-57.923-42.125-124.621-137.61-77.932-286.102 29.488-93.729 20.361-189.214-23.52-249.242-18.605-25.275-52.306-55.816-106.016-55.816-69.858 0-139.014 36.86-168.151 89.517-10.882 19.308-19.659 48.795-1.053 78.634 41.423 66.348 62.135 128.483 71.964 166.045 23.169 3.51 45.636 10.882 67.050 22.467 19.308 10.18 31.243 28.786 33.7 49.146 91.623 82.847 134.099 232.392 136.557 241.168 4.915 17.903-3.51 36.509-19.308 44.583 12.638 112.335-28.786 168.853-54.061 191.671 1.755 10.882-2.457 22.467-11.936 28.435l-45.987 30.19c-11.936 7.723-27.031 3.862-33.7-8.776l-21.765-42.477c-6.67-12.638-0.702-26.328 12.989-30.541l51.955-15.446c13.34-3.862 29.137 2.457 36.509 14.042 20.712-21.765 50.551-70.56 40.37-163.236-14.042-2.808-26.328-12.989-30.541-27.733-12.638-44.934-48.444-137.61-102.154-193.075-17.201 6.67-36.86 6.319-54.061-3.159-11.233-5.968-22.467-9.127-33.7-9.478h-2.457c-11.936 0.351-23.871 3.51-35.807 10.18-16.85 9.478-36.158 10.531-53.359 4.213-52.306 55.816-87.761 146.386-100.048 190.969-4.213 14.744-16.148 25.275-30.541 27.733-10.18 92.676 19.659 141.471 40.37 163.236 7.372-11.585 23.169-17.903 36.509-14.042l51.955 15.446c13.691 4.213 19.659 17.903 12.989 30.541l-21.765 42.477c-6.67 12.638-21.765 16.85-33.7 8.776l-45.987-30.19c-9.478-6.319-13.691-17.552-11.936-28.435-24.924-23.169-66.699-79.687-54.061-191.671-15.797-8.425-24.222-26.679-19.308-44.934 3.51-8.074 44.583-152.705 133.397-236.254zM735.792 690.748c29.839 0 54.061-24.222 54.061-54.412 0-29.839-24.222-54.412-54.061-54.412s-54.412 24.222-54.412 54.412c0.351 30.19 24.573 54.412 54.412 54.412z" />
<glyph unicode="&#xe61a;" glyph-name="golf" horiz-adv-x="1201" d="M958.981 549.503v212.994c26.089 18.14 44.229 46.675 44.229 83.159v15.694c0 54.624-44.229 98.854-98.854 98.854h-613.299c-54.624-0.204-98.65-44.433-98.65-98.854v-15.694c0-46.675 33.834-88.255 80.51-96.204l-101.299-319.592c-33.834 0-67.669-20.79-80.51-51.975l-65.019-150.624c33.834 33.834 78.064 51.975 130.038 51.975 101.299 0 182.013-80.51 184.459-179.363h309.197c2.65 98.854 85.809 179.363 184.459 179.363 78.064 0 145.529-49.325 174.064-119.439h129.834c33.834 0 62.369 28.535 62.369 62.369v262.318c0 36.484-28.535 62.369-62.369 62.369h-179.363l0.204 2.65zM870.522 549.503h-119.439v-119.439h-59.72v-137.783c0-23.439-18.14-41.58-41.58-41.58h-153.274c-23.439 0-41.58 18.14-41.58 41.58v137.783h-150.828l80.51 80.51 31.185-31.389 20.79 20.79-88.459 83.159-20.79-20.79 31.389-31.185-88.459-88.255 96.204 304.102h501.605v-197.503h2.446zM155.924 248.051c-85.809 0-155.924-70.115-155.924-155.924s70.115-155.924 155.924-155.924 155.924 70.115 155.924 155.924c0 88.255-70.115 155.924-155.924 155.924zM155.924 29.758c-36.28 0-65.019 28.535-65.019 65.019s28.535 65.019 65.019 65.019 65.019-28.535 65.019-65.019c0-36.484-28.739-65.019-65.019-65.019zM834.242 248.051c-85.809 0-155.924-70.115-155.924-155.924s70.115-155.924 155.924-155.924c85.809 0 155.924 70.115 155.924 155.924 0 88.255-70.115 155.924-155.924 155.924zM834.242 29.758c-36.484 0-65.019 28.535-65.019 65.019s28.535 65.019 65.019 65.019 65.019-28.535 65.019-65.019c-0.204-36.484-28.739-65.019-65.019-65.019z" />
<glyph unicode="&#xe61b;" glyph-name="home2" horiz-adv-x="1287" d="M643.25 753.411l-458.745-378.514c0-0.559 0-1.398-0.28-2.516s-0.28-1.957-0.28-2.516v-382.987c0-13.698 5.032-25.719 15.096-35.783s22.085-15.096 35.783-15.096h306.389v306.669h204.353v-306.389h306.389c13.698 0 25.719 5.032 35.783 15.096s15.096 22.085 15.096 35.783v382.987c0 2.236-0.28 3.634-0.839 4.752l-458.745 378.514zM1277.833 461.279l-174.72 145.367v325.399c0 7.548-2.516 13.698-7.268 18.45s-10.903 7.268-18.45 7.268h-153.195c-7.548 0-13.698-2.516-18.45-7.268s-7.268-10.903-7.268-18.45v-155.711l-194.848 162.699c-17.053 13.698-37.18 20.687-60.663 20.687s-43.61-6.989-60.663-20.687l-573.921-478.034c-5.311-4.193-8.107-10.064-8.666-17.053-0.559-7.268 1.398-13.419 5.591-18.73l49.481-58.986c4.193-4.752 9.784-7.827 16.773-8.666 6.43-0.559 12.859 1.398 19.289 5.591l552.395 460.423 552.395-460.423c4.193-3.634 9.784-5.591 16.773-5.591h2.516c6.989 1.118 12.58 3.914 16.773 8.666l49.481 58.986c4.193 5.311 6.15 11.462 5.591 18.73s-3.634 13.139-8.946 17.332z" />
<glyph unicode="&#xe61c;" glyph-name="laptop" horiz-adv-x="1209" d="M1206.386 1.099l-74.987 300.223c-1.099 4.67-3.021 9.064-5.219 13.185 4.395 11.811 6.592 24.721 6.592 38.18v494.97c0 62.077-50.541 112.618-112.618 112.618h-831.725c-62.077 0-112.618-50.541-112.618-112.618v-494.97c0-13.459 2.472-26.094 6.592-38.18-2.197-4.12-4.12-8.515-5.219-13.185l-75.536-302.695c-3.845-15.107-0.275-31.039 9.064-43.399 9.614-12.361 24.172-19.502 39.828-19.502h1107.502c0 0 0 0 0 0 27.742 0 50.541 22.524 50.541 50.541 0 5.219-0.824 10.163-2.197 14.833zM732.017 14.833c0 0 0 0 0 0h-255.725c-3.021 0-5.768 1.373-7.691 3.571s-2.747 5.219-2.197 8.24l20.052 110.421c0.824 4.67 4.944 8.24 9.888 8.24h215.897c4.944 0 9.064-3.571 9.888-8.24l19.777-109.597c0.275-0.824 0.275-1.648 0.275-2.747 0-5.494-4.67-9.888-10.163-9.888zM1034.438 352.687c0-5.768-3.571-10.712-8.24-12.91h-843.536c-4.944 2.197-8.24 7.142-8.24 12.91v494.97c0 7.966 6.318 14.283 14.283 14.283h831.725c7.966 0 14.283-6.318 14.283-14.283l-0.275-494.97zM631.76 620.773l31.588 8.515c6.318 1.648 10.712 7.142 10.987 13.734s-3.571 12.361-9.614 14.558l-145.579 55.485c-5.494 2.197-11.811 0.824-15.931-3.296s-5.494-10.438-3.296-15.931l55.21-145.305c2.197-6.043 8.24-9.888 14.558-9.614 6.592 0.275 12.086 4.67 13.734 10.987l8.515 31.588 73.614-73.614c5.768-5.768 15.382-5.768 21.15 0l18.403 18.403c5.768 5.768 5.768 15.382 0 21.15l-73.339 73.339z" />
<glyph unicode="&#xe61d;" glyph-name="marine" horiz-adv-x="1925" d="M774.109 731.393c63.064-0.394 114.697 50.451 115.092 113.909 0.394 63.064-50.451 114.697-113.909 115.092-63.064 0-114.697-50.845-115.092-113.909s50.451-114.697 113.909-115.092zM160.025 208.751h31.532c89.866 40.992 201.804 32.32 281.817-27.59 47.298 34.291 104.844 53.21 163.572 52.816 0 0 0 0 0.394 0 58.334-0.394 115.88-19.707 162.784-54.393 93.808 68.582 232.548 68.188 327.144-1.971 94.596 69.37 233.336 68.582 326.75-1.577 42.174 30.744 93.413 46.51 144.653 49.663l188.798 206.928c10.248 11.036 12.613 27.196 6.701 40.597-5.912 13.795-19.707 22.467-34.685 22.861l-304.283 1.577-308.225 256.591c-26.408 22.072-59.911 34.291-93.808 34.291l-46.51 0.394c-23.255 0-44.933-13.401-54.787-34.291-10.248-20.89-7.489-46.115 7.095-64.246l152.93-190.768-211.264 1.182 83.166 33.897c24.437 9.854 36.262 37.838 26.408 62.67-9.854 24.437-37.838 36.262-62.67 26.408l-86.319-35.079-95.778 75.677c0 0.394-0.394 0.788-0.394 1.182-11.036 24.437-31.532 43.751-56.758 53.21l-0.394 0.394c-52.422 20.102-111.15-6.306-131.252-58.728l-59.911-157.266-283.788 1.577c-25.62 0-48.875-14.978-59.122-38.627l-72.129-167.908c-8.277-19.707-6.306-42.174 5.124-60.305 11.824-18.131 31.926-28.773 53.21-29.167zM1006.263 724.693l46.51-0.394c19.707 0 38.627-7.095 53.604-19.707l248.708-206.928-161.601 0.788-187.221 226.242zM734.3 501.604l18.919 49.269 63.064-50.057-81.983 0.788zM1906.895 78.288c-24.831 25.226-65.429 25.226-90.654 0.394-20.102-20.102-53.21-19.707-72.918 0.394-67.005 67.794-186.038 68.582-253.832 1.577l-1.182-1.182c-19.313-18.525-52.816-17.737-71.735 1.182-67.4 68.188-185.644 68.976-253.832 1.577-19.707-19.313-53.604-19.313-72.918 0.394l-3.547 3.547c-67.794 65.035-183.674 64.246-250.679-1.971-19.313-18.919-53.21-18.919-72.918 0.394-33.109 33.503-79.224 53.21-126.522 53.21 0 0 0 0 0 0-47.298 0.394-93.808-18.525-127.31-52.028-19.313-18.919-53.604-18.919-72.523 0.394-67.4 68.188-185.644 68.582-253.832 1.577-20.496-20.102-53.21-19.707-72.918 0.394-24.831 25.226-65.429 25.226-90.654 0.394s-25.226-65.429-0.394-90.654c69.764-70.159 183.279-70.947 253.832-1.577 19.707 19.313 53.604 19.313 72.918-0.394 67.4-67.794 185.644-68.188 253.832-0.788 9.46 9.46 22.861 14.978 36.656 14.978v0c13.401 0 26.802-5.518 36.262-15.372 33.897-33.897 78.83-52.816 126.522-53.21 48.086-0.394 93.019 18.131 127.31 52.028 19.313 19.313 53.604 18.919 72.523-0.394l3.941-3.547c67.794-65.035 183.279-64.246 250.285 1.971 19.707 19.313 53.604 19.313 72.918-0.394 67.4-68.188 185.644-68.976 253.832-1.577l0.788 0.788c19.707 18.525 53.21 18.131 72.129-1.577 69.764-70.159 183.674-70.553 253.832-1.182 25.226 25.226 25.62 65.429 0.788 90.654z" />
<glyph unicode="&#xe61e;" glyph-name="mobile" horiz-adv-x="579" d="M504.526 960h-429.781c-41.109 0-74.745-33.635-74.745-74.745v-874.511c0-41.109 33.635-74.745 74.745-74.745h429.781c41.109 0 74.745 33.635 74.745 74.745v874.511c0 41.109-33.635 74.745-74.745 74.745zM183.124 911.416h213.022c3.737 0 11.212-7.474 11.212-18.686s-3.737-18.686-11.212-18.686h-213.022c-3.737 0-11.212 7.474-11.212 18.686s3.737 18.686 11.212 18.686zM287.766 7.007c-26.161 0-48.584 22.423-48.584 48.584s22.423 48.584 48.584 48.584c26.161 0 48.584-22.423 48.584-48.584s-22.423-48.584-48.584-48.584zM523.212 171.445h-467.153v661.489h467.153v-661.489z" />
<glyph unicode="&#xe61f;" glyph-name="motocar" horiz-adv-x="1415" d="M797.714 374.857c0 0-61.714 585.143-292.571 585.143-260.571 0-370.286 0-370.286 0v-537.143c-41.143 0-73.143 0-93.714 0-93.714 0 0-333.714 0-333.714h59.429c4.571 82.286 73.143 148.571 157.714 148.571s153.143-66.286 157.714-148.571h192c0 0 0 2.286 0 2.286 0 91.429 75.429 166.857 166.857 166.857s166.857-75.429 166.857-166.857c0-11.429 0-20.571-2.286-32h59.429l-98.286 308.571c-93.714-50.286-102.857 6.857-102.857 6.857zM500.571 356.571l-86.857 153.143h-189.714v363.429h267.429c77.714 0 121.143-109.714 144-198.857 13.714-57.143 59.429-269.714 61.714-315.429l-196.571-2.286zM772.571 237.714c-80 0-144-64-144-144s64-144 144-144c80 0 144 64 144 144 2.286 77.714-64 144-144 144zM772.571 9.143c-45.714 0-84.571 36.571-84.571 84.571 0 45.714 36.571 84.571 84.571 84.571s84.571-36.571 84.571-84.571c0-48-36.571-84.571-84.571-84.571zM253.714 210.286c-75.429 0-137.143-61.714-137.143-137.143s61.714-137.143 137.143-137.143c75.429 0 137.143 61.714 137.143 137.143s-61.714 137.143-137.143 137.143zM253.714-6.857c-43.429 0-80 36.571-80 80s36.571 80 80 80c43.429 0 80-36.571 80-80s-36.571-80-80-80zM1414.857 230.857c-4.571 16-22.857 25.143-38.857 20.571l-301.714-100.571-260.571 784c-4.571 16-22.857 25.143-38.857 20.571s-25.143-22.857-20.571-38.857l272-813.714c4.571-13.714 16-20.571 29.714-20.571 2.286 0 6.857 0 9.143 2.286l331.429 109.714c13.714 2.286 22.857 20.571 18.286 36.571z" />
<glyph unicode="&#xe620;" glyph-name="motoped" horiz-adv-x="1623" d="M794.929 597.305h586.312c6.818 0 13.635 4.091 16.362 9.545 17.726 38.178 34.088 76.357 16.362 102.264-16.362 24.543-55.904 34.088-137.715 34.088-51.814 0-117.262-4.091-186.802-8.181-85.901-5.454-184.075-12.272-280.884-12.272-6.818 0-12.272-2.727-14.999-9.545-1.364-2.727-14.999-27.27-16.362-87.265 0-5.454 0-9.545 0-13.635 1.364-8.181 8.181-14.999 17.726-14.999zM1566.679 346.418l10.908 4.091c5.454 2.727 10.908 6.818 10.908 13.635l10.908 54.541c1.364 6.818-1.364 12.272-5.454 16.362l-58.631 53.177c-2.727 2.727-6.818 4.091-10.908 4.091l-72.266 1.364c-13.635 12.272-55.904 47.723-74.993 64.085-2.727 2.727-6.818 4.091-10.908 4.091h-542.679c-5.454 0-10.908-2.727-14.999-8.181-2.727-4.091-4.091-10.908-2.727-16.362 4.091-12.272 13.635-23.18 25.907-38.178 13.635-16.362 32.724-38.178 53.177-72.266 14.999-24.543 17.726-50.45 8.181-74.993-14.999-39.542-57.268-70.903-83.174-77.72-20.453-5.454-53.177-9.545-91.356-9.545-58.631 0-119.989 8.181-171.803 23.18-96.81 27.27-114.535 245.433-104.991 282.248 5.454 20.453 31.361 89.992 55.904 158.168 6.818 19.089 12.272 35.451 17.726 50.45 4.091-2.727 6.818-5.454 8.181-5.454 2.727-1.364 6.818-2.727 9.545-2.727 5.454 0 12.272 2.727 14.999 8.181 5.454 8.181 2.727 19.089-5.454 24.543 0 0-6.818 4.091-13.635 9.545 4.091 10.908 6.818 19.089 9.545 27.27 0 0 0 0 1.364 0 1.364-5.454 6.818-10.908 12.272-12.272 25.907-6.818 49.087-14.999 50.45-14.999 1.364-1.364 4.091-1.364 5.454-1.364 6.818 0 13.635 4.091 16.362 12.272 2.727 9.545-1.364 19.089-10.908 23.18-1.364 0-25.907 9.545-53.177 16.362-5.454 1.364-10.908 0-14.999-4.091 4.091 13.635 5.454 19.089 5.454 23.18 0 32.724-124.080 79.084-162.258 80.447-10.908 0-21.816-4.091-28.634-13.635-27.27-32.724-12.272-125.443-9.545-144.533 1.364-8.181 8.181-13.635 14.999-14.999l46.36-5.454c-14.999-49.087-84.538-203.164-99.537-226.344-4.091-5.454-27.27-9.545-38.178-10.908-24.543-4.091-46.36-8.181-55.904-25.907-8.181-17.726-8.181-47.723-6.818-64.085-2.727 0-5.454 0-8.181 0-81.811 0-158.168-43.632-199.073-114.535-9.545-14.999-10.908-29.997-4.091-44.996s21.816-27.27 42.269-38.178c-27.27-34.088-43.632-76.357-43.632-122.716 0-109.081 88.628-197.71 197.71-197.71s197.71 88.628 197.71 197.71c0 5.454 0 10.908-1.364 16.362 17.726-6.818 40.905-17.726 47.723-20.453 6.818-4.091 12.272 0 12.272 5.454 1.364 5.454 2.727 19.089 4.091 29.997 51.814-42.269 109.081-44.996 190.892-44.996h456.778c16.362-103.627 106.354-182.711 212.708-182.711 118.626 0 216.799 96.81 216.799 216.799 0 6.818 0 12.272-1.364 19.089 62.722 9.545 73.63 19.089 77.72 24.543 6.818 6.818 8.181 13.635 8.181 19.089 2.727 34.088-32.724 95.446-51.814 126.807zM308.154 133.71c0-59.995-49.087-109.081-109.081-109.081s-109.081 49.087-109.081 109.081c0 35.451 17.726 68.176 44.996 87.265 32.724-9.545 68.176-19.089 104.991-27.27 19.089-4.091 38.178-9.545 57.268-13.635 6.818-14.999 10.908-29.997 10.908-46.36zM1449.417 152.799c0-70.903-57.268-128.17-128.17-128.17s-128.17 57.268-128.17 128.17c94.083 1.364 194.983 6.818 253.614 10.908 1.364-4.091 2.727-6.818 2.727-10.908z" />
<glyph unicode="&#xe621;" glyph-name="tent" horiz-adv-x="1587" d="M1036.445 942.055c-6.078 9.551-24.601 17.945-35.889 17.945h-318.372c-11.288 0-11.577-8.393-6.078-18.234l562.65-977.112c5.499-9.841 18.813-10.419 29.522-7.236l306.795 96.959c10.709 3.184 14.761 16.208 8.683 25.759l-547.31 861.92zM273.51-35.636l271.484 579.437v-560.624c0-50.071 53.255-47.177 64.543-47.177h529.076c11.288 0 15.919 18.234 10.419 28.075l-546.731 968.719c-5.499 9.841-14.761 9.841-20.26 0l-136.9-240.226c-5.499-9.841-18.234-22.286-28.075-27.785-138.347-76.699-325.318-179.446-408.095-215.625-12.445-5.499-11.577-21.128-2.026-30.679 18.523-17.945 57.596-59.044 93.486-108.825 21.128-28.943 39.362-61.070 54.413-92.907 4.92-10.13 3.763-26.627-1.737-36.468l-117.508-216.782c-5.499-9.841-0.868-28.075 10.419-28.075h197.391c11.867 0.579 25.18 18.813 30.101 28.943zM115.772 410.953c-5.21 4.341-4.341 10.419 1.447 13.603 58.175 30.39 334.001 175.105 410.41 221.992 5.789 3.473 7.815 1.737 4.92-4.341l-261.354-513.447c-3.184-6.078-6.657-5.499-8.104 1.158-9.551 43.414-49.492 194.496-147.319 281.036z" />
<glyph unicode="&#xe622;" glyph-name="tool" horiz-adv-x="1105" d="M562.559 134.15h-544.026c-10.085 0-18.261-8.177-18.261-17.989v-115.837c0-35.433 28.891-64.324 64.324-64.324h451.356c35.433 0 64.324 28.891 64.324 64.324v115.837c0.545 9.812-7.632 17.989-17.716 17.989zM694.205 916.663l-127.83 42.246c-1.908 0.545-3.816 0.818-5.724 0.818h-542.39c-10.085 0-18.261-8.177-18.261-18.261v-295.998c0-10.085 8.177-17.989 18.261-17.989h143.365l-77.679-358.414-71.683-29.709c-6.814-2.726-11.175-9.54-11.175-16.899v-39.248c0-10.085 8.177-17.989 17.989-17.989h541.845c10.085 0 17.989 8.177 17.989 17.989v48.243c0 8.722-6.269 16.081-14.718 17.716l-157.538 29.981 13.9 126.467 41.974 18.806c5.451 2.453 9.267 7.359 10.357 13.083l30.254 151.815c1.908 9.54-4.088 18.806-13.628 21.26l-25.348 5.996v9.267h93.215c3.816 0 7.632 1.363 10.63 3.816l131.645 113.384c4.361 3.543 7.087 8.722 7.087 14.446v142.003c0 7.904-5.179 14.718-12.538 17.171zM821.489 917.481h-69.502c-10.085 0-18.261-8.177-18.261-17.989v-133.008c0-10.085 8.177-17.989 18.261-17.989h69.502c10.085 0 18.261 8.177 18.261 17.989v133.008c-0.273 10.085-8.449 17.989-18.261 17.989zM1087.233 850.432c0 0 0 0 0 0l-193.244-0.273v13.083c0 10.085-8.177 17.989-17.989 17.989-10.085 0-17.989-8.177-17.989-17.989v-62.416c0-10.085 8.177-17.989 17.989-17.989s17.989 8.177 17.989 17.989v13.083h193.516c10.085 0 17.989 8.449 17.989 18.261-0.273 10.085-8.177 18.261-18.261 18.261z" />
<glyph unicode="&#xe623;" glyph-name="arrowright" d="M297.29-67.303l-82.581 82.581 432.723 432.723-432.723 429.419 82.581 82.581 512-512z" />
<glyph unicode="&#xe624;" glyph-name="arrowdown" d="M-3.303 662.71l82.581 82.581 432.723-432.723 429.419 432.723 82.581-82.581-512-512z" />
<glyph unicode="&#xe625;" glyph-name="facebook" horiz-adv-x="531" d="M342.899-64v465.028h155.009l23.486 183.193h-178.495v117.431c0 51.67 14.092 89.248 89.248 89.248h98.642v159.706c-18.789 4.697-75.156 9.394-140.917 9.394-140.917 0-234.862-84.55-234.862-239.56v-136.22h-155.009v-183.193h155.009v-465.028h187.89z" />
<glyph unicode="&#xe800;" glyph-name="doublearrowleft" horiz-adv-x="959" d="M878.056 960l81.346-81.346-428.262-430.654 428.262-428.262-81.346-81.346-509.607 512zM516.785 957.607l81.346-83.738-435.439-423.477 423.477-435.439-81.346-78.953-504.822 516.785z" />
<glyph unicode="&#xe900;" glyph-name="lithium-deep-cycle" horiz-adv-x="1335" d="M1314.014 873.439h-205.010v65.153c0 11.827-9.581 21.408-21.378 21.408h-146.624c-11.797 0-21.378-9.581-21.378-21.408v-65.123h-503.856v65.123c0 11.827-9.581 21.408-21.378 21.408h-146.624c-11.797 0-21.378-9.581-21.378-21.408v-65.123h-205.010c-11.797-0.030-21.378-9.611-21.378-21.438v-136.683c0-11.827 9.581-21.408 21.378-21.408h1292.635c11.797 0 21.378 9.581 21.378 21.408v136.683c0 11.827-9.581 21.408-21.378 21.408zM90.813-36.214c0-15.33 12.426-27.786 27.726-27.786h1098.315c15.33 0 27.726 12.426 27.726 27.786v657.216h-1153.767v-657.216zM536.402 247.601l64.973 207.974c1.108 3.563 4.431 6.018 8.174 6.018h101.322c2.725 0 5.3-1.317 6.916-3.533s2.066-5.060 1.228-7.665l-39.553-122.371h111.382c3.144 0 6.018-1.707 7.515-4.461s1.377-6.108-0.329-8.743l-148.779-231.178c-1.617-2.515-4.342-3.922-7.186-3.922-1.018 0-2.066 0.18-3.054 0.569-3.773 1.467-6.018 5.36-5.36 9.372l24.013 146.863h-113.059c-2.725 0-5.27 1.287-6.887 3.503-1.647 2.126-2.126 4.97-1.317 7.575z" />
<glyph unicode="&#xe901;" glyph-name="cross" d="M1014.662 137.34c-0.004 0.004-0.008 0.008-0.012 0.010l-310.644 310.65 310.644 310.65c0.004 0.004 0.008 0.006 0.012 0.010 3.344 3.346 5.762 7.254 7.312 11.416 4.246 11.376 1.824 24.682-7.324 33.83l-146.746 146.746c-9.148 9.146-22.45 11.566-33.828 7.32-4.16-1.55-8.070-3.968-11.418-7.31 0-0.004-0.004-0.006-0.008-0.010l-310.648-310.652-310.648 310.65c-0.004 0.004-0.006 0.006-0.010 0.010-3.346 3.342-7.254 5.76-11.414 7.31-11.38 4.248-24.682 1.826-33.83-7.32l-146.748-146.748c-9.148-9.148-11.568-22.452-7.322-33.828 1.552-4.16 3.97-8.072 7.312-11.416 0.004-0.002 0.006-0.006 0.010-0.010l310.65-310.648-310.65-310.652c-0.002-0.004-0.006-0.006-0.008-0.010-3.342-3.346-5.76-7.254-7.314-11.414-4.248-11.376-1.826-24.682 7.322-33.83l146.748-146.746c9.15-9.148 22.452-11.568 33.83-7.322 4.16 1.552 8.070 3.97 11.416 7.312 0.002 0.004 0.006 0.006 0.010 0.010l310.648 310.65 310.648-310.65c0.004-0.002 0.008-0.006 0.012-0.008 3.348-3.344 7.254-5.762 11.414-7.314 11.378-4.246 24.684-1.826 33.828 7.322l146.746 146.748c9.148 9.148 11.57 22.454 7.324 33.83-1.552 4.16-3.97 8.068-7.314 11.414z" />
<glyph unicode="&#xe902;" glyph-name="tickmark" d="M864 832l-480-480-224 224-160-160 384-384 640 640z" />
<glyph unicode="&#xe903;" glyph-name="australia" d="M1016.8 583.2l-332 280c-6 5-14.2 6.2-21.4 2.8-7-3.2-11.6-10.4-11.6-18.2v-132.2l-183 61 57.2 57.2c5.8 5.8 7.4 14.4 4.4 21.8s-10.4 12.4-18.4 12.4h-160c-5.4 0-10.4-2.2-14.2-5.8l-196.4-196.4-127.2-38.6c-5.2-1.6-9.6-5.2-12-10.2-2.4-4.8-2.8-10.6-1-15.6l90.8-256.8v-116.6c0-11 9-20 20-20h160c3.6 0 7 1 10 2.8l230.6 134.6 219.4-109.8v-27.6c0-11 9-20 20-20h160c8.6 0 16.4 5.6 19 13.8l92 280c0.6 2 1 4.2 1 6.2v80c0 5.8-2.6 11.4-7.2 15.2v0zM912 148h-160c-7 0-13.4-3.6-17-9.4s-4-13.2-0.8-19.4l40-80c3.4-6.8 10.4-11 17.8-11h80c7.6 0 14.4 4.2 17.8 11l40 80c3 6.2 2.8 13.6-0.8 19.4s-10 9.4-17 9.4v0z" />
<glyph unicode="&#xe904;" glyph-name="lithium-deep-cycle1" horiz-adv-x="1829" d="M1557.943 872.229h-204.8v58.514c0 14.629-7.314 21.943-21.943 21.943h-146.286c-14.629 0-21.943-7.314-21.943-21.943v-65.829h-497.371v65.829c0 14.629-7.314 21.943-21.943 21.943h-146.286c-14.629 0-21.943-7.314-21.943-21.943v-65.829h-204.8c-14.629 0-21.943-7.314-21.943-21.943v-138.971c0-14.629 7.314-21.943 21.943-21.943h1280c14.629 0 21.943 7.314 21.943 21.943v146.286c0 7.314-7.314 21.943-14.629 21.943zM343.771-34.743c0-14.629 14.629-29.257 29.257-29.257h1089.829c14.629 0 29.257 14.629 29.257 29.257v650.971h-1148.343v-650.971zM782.629 250.514l65.829 204.8c0 0 7.314 7.314 7.314 7.314h102.4c0 0 7.314 0 7.314 0s0-7.314 0-7.314l-36.571-124.343h109.714c0 0 7.314 0 7.314-7.314s0-7.314 0-7.314l-146.286-226.743c0 0-7.314-7.314-7.314-7.314s0 0 0 0c-7.314 0-7.314 7.314-7.314 7.314l21.943 146.286h-109.714c0 0-7.314 0-7.314 0-7.314 7.314-7.314 7.314-7.314 14.629z" />
<glyph unicode="&#xe905;" glyph-name="australia1" horiz-adv-x="1829" d="M1528.686 608.914l-402.286 343.771c-7.314 7.314-21.943 7.314-29.257 0s-14.629-14.629-14.629-21.943v-160.914l-219.429 73.143 73.143 73.143c7.314 7.314 7.314 14.629 7.314 29.257 0 7.314-14.629 14.629-21.943 14.629h-204.8c-7.314 0-14.629 0-14.629-7.314l-241.371-241.371-153.6-43.886c-7.314 0-7.314-7.314-14.629-14.629 0-7.314 0-14.629 0-21.943l109.714-314.514v-138.971c0-14.629 7.314-21.943 21.943-21.943h197.486c7.314 0 7.314 0 14.629 0l277.943 160.914 263.314-131.657v-29.257c0-14.629 7.314-21.943 21.943-21.943h197.486c7.314 0 21.943 7.314 21.943 14.629l117.029 343.771c0 0 0 7.314 0 7.314v95.086c0 7.314 0 14.629-7.314 14.629v0zM1397.029 82.286h-197.486c-7.314 0-14.629-7.314-21.943-14.629s-7.314-14.629 0-21.943l51.2-95.086c7.314-7.314 14.629-14.629 21.943-14.629h95.086c7.314 0 14.629 7.314 21.943 14.629l51.2 95.086c0 7.314 0 14.629 0 21.943s-7.314 14.629-21.943 14.629v0z" />
<glyph unicode="&#xea8b;" glyph-name="google-plus" d="M325.8 502.6v-111.8h184.8c-7.4-48-55.8-140.6-184.8-140.6-111.2 0-202 92.2-202 205.8s90.8 205.8 202 205.8c63.4 0 105.6-27 129.8-50.2l88.4 85.2c-56.8 53-130.4 85.2-218.2 85.2-180.2-0.2-325.8-145.8-325.8-326s145.6-325.8 325.8-325.8c188 0 312.8 132.2 312.8 318.4 0 21.4-2.4 37.8-5.2 54h-307.6zM1024 512h-96v96h-96v-96h-96v-96h96v-96h96v96h96z" />
</font>
</defs>
</svg>
